nursebio.com
Inicio   -   Ayuda   -   Contacto   -   Últimos Torrents

Torrents
Documentales 842
Películas 11256
Películas HD 2068
Series 1961
   Episodios 22513
Series HD 244
   Episodios 2743
Juegos 2689
   PC 1736
Variados 1521
   Deportes 36
   Programas 592
   Videoclips 102
   Otros 722
Música MP3 3525
Total Torrents 57258

Información
Esta web no contiene ningún tipo de fichero almacenado.

Todos los archivos se comparten mediante el BitTorrent, un programa P2P de intercambio entre usuarios.



Descarga la última versión de uTorrent y baja a la máxima velocidad:
Fun - Some Nights
Total Descargas:  1.155 En Diciembre:  1.155

Fecha:  2016-10-24



Torrent:      Descargar         Tamaño:  55,16 MB
Descripción:

General Complete name : Fun - Some Nights (1080p) x264 [VX]
[P2PDL].mp4 Format : MPEG-4 Format profile : Base Media / Version 2 File
size : 51.6 MiB Duration : 5mn 39s Overall bit rate mode : Variable Overall
bit rate : 1 273 Kbps Video ID : 1 Format : AVC Format/Info : Advanced
Video Codec Duration : 5mn 39s Bit rate mode : Variable Bit rate : 1 138
Kbps Width : 1 916 pixels Height : 780 pixels Display aspect ratio : 2.456
Frame rate mode : Variable Frame rate : 23.976 fps Bit depth : 8 bits Scan
type : Progressive Stream size : 46.2 MiB (90%) Writing library : x264 core
125 Audio ID : 2 Format : AAC Format/Info : Advanced Audio Codec
Format profile : LC Duration : 5mn 39s Bit rate mode : Variable Bit rate :
127 Kbps Maximum bit rate : 208 Kbps Channel(s) : 2 channels Channel
positions : Front: L R Sampling rate : 48.0 KHz Stream size : 5.15 MiB (10%)



Volver al índice de Variados







Datos legales


04:23:14
computer