MejorTorrent : variados extend
Inicio   -   Ayuda   -   Contacto   -   últimos Torrents

Torrents
Documentales842
Películas11256
Películas HD2068
Series1961
  Episodios22513
Series HD244
  Episodios2743
Juegos2689
  PC1736
Variados1521
  Deportes36
  Programas592
  Videoclips102
  Otros722
Música MP3 3525
Total Torrents57258

Información
Esta web no contiene ningún tipo de fichero almacenado.

Todos los archivos se comparten mediante el BitTorrent, un programa P2P de intercambio entre usuarios.



Descarga la última versión de uTorrent y baja a la máxima velocidad:
A-ha - Ending on a High Note (The Final Concert live at Oslo)
Total Descargas:  4.458 En Noviembre:  2.876

Fecha:  2015-10-02



Torrent:      Descargar         Tamaño:  7,61 GB
Descripción:

Interpret: A-ha
Name DVD: Ending on a High Note (The Final Concert 2010)
Video format: MPEG-PS
Audio format: LPCM Stereo 2.0/Dolby Digital 5.1/DTS 5.1
Title: FRA/ITA/ESP/NOR/GER/RUS
Menu/Bonus: Yes/Yes
Time: 125 min.
*2011 (Universal Music)
Source: DVD9 full
Genre: Pop (Synth-pop, New Wave)
Cover: Yes

***

A-ha is:

Morten Harket – vocals, guitars, electric drums, percussion
Paul Waaktaar-Savoy – guitars, backing vocals
Magne Furuholmen – keyboards, piano, guitars, electric drums, backing vocals

with:

Karl Oluf Wennerberg – drums, electric drums
Erik Ljunggren – keyboards, programming, bass guitar

***

DVD included:

01."The Sun Always Shines on T.V." (Paul Waaktaar-Savoy)
02."Move to Memphis" (Magne Furuholmen, Paul Waaktaar-Savoy)
03."The Blood That Moves the Body" (Paul Waaktaar-Savoy)
04."Scoundrel Days" (Magne Furuholmen, Paul Waaktaar-Savoy)
05."The Swing of Things" (Paul Waaktaar-Savoy)
06."Forever Not Yours" (Magne Furuholmen, Morten Harket, Ole Sverre-Olsen)
07."Stay on These Roads" (Magne Furuholmen, Morten Harket, Paul Waaktaar-Savoy)
08."Manhattan Skyline" (Magne Furuholmen, Paul Waaktaar-Savoy)
09."Hunting High and Low" (Paul Waaktaar-Savoy)
10."We're Looking For the Whales" (Paul Waaktaar-Savoy)
11."Butterfly, Butterfly" (The Last Hurrah) (Paul Waaktaar-Savoy)
12."Crying in the Rain" (Carole King, Howard Greenfield)
13."Minor Earth Major Sky" (Magne Furuholmen, Paul Waaktaar-Savoy)
14."Summer Moved On" (Paul Waaktaar-Savoy)
15."I've Been Losing You" (Paul Waaktaar-Savoy)
16."Foot of the Mountain" (Magne Furuholmen, Paul Waaktaar-Savoy, Martin Terefe)
17."Cry Wolf" (Magne Furuholmen, Paul Waaktaar-Savoy)
18."Analogue" (All I Want) (Magne Furuholmen, Max Martin, Paul Waaktaar-Savoy)
19."The Living Daylights" (John Barry, Paul Waaktaar-Savoy)
20."Take on Me" (Magne Furuholmen, Morten Harket, Paul Waaktaar-Savoy)

Bonus:

Dokument(15 min.)/Fotogalerie

***

General
Complete name: C:\aha The Final Concert\VIDEO_TS\VTS_01_3.VOB
Format: MPEG-PS
File size: 1 024 MiB
Duration: 16mn 51s
Overall bit rate mode: Variable
Overall bit rate: 8 490 Kbps

Video
ID: 224 (0xE0)
Format: MPEG Video
Format version: Version 2
Format profile: Main@Main
Format settings, BVOP: Yes
Format settings, Matrix: Custom
Format settings, GOP: M=3, N=12
Format settings, picture structure: Frame
Duration: 16mn 51s
Bit rate mode: Variable
Bit rate: 5 582 Kbps
Maximum bit rate: 7 060 Kbps
Width: 720 pixels
Height: 576 pixels
Display aspect ratio: 16:9
Frame rate: 25.000 fps
Standard: PAL
Color space: YUV
Chroma subsampling: 4:2:0
Bit depth: 8 bits
Scan type: Interlaced
Scan order: Top Field First
Compression mode: Lossy
Bits/(Pixel*Frame): 0.538
Time code of first frame: 10:32:46:17
Time code source: Group of pictures header
GOP, Open/Closed: Open
Stream size: 673 MiB (66%)

Audio #1
ID: 189 (0xBD)-129 (0x81)
Format: AC-3
Format/Info: Audio Coding 3
Mode extension: CM (complete main)
Format settings, Endianness: Big
Muxing mode: DVD-Video
Duration: 16mn 51s
Bit rate mode: Constant
Bit rate: 448 Kbps
Channel(s): 6 channels
Channel positions: Front: L C R, Side: L R, LFE
Sampling rate: 48.0 KHz
Bit depth: 16 bits
Compression mode: Lossy
Delay relative to video: -752ms
Stream size: 54.0 MiB (5%)

Audio #2
ID: 189 (0xBD)-138 (0x8A)
Format: DTS
Format/Info: Digital Theater Systems
Mode: 16
Format settings, Endianness: Big
Muxing mode: DVD-Video
Duration: 16mn 51s
Bit rate mode: Constant
Bit rate: 755 Kbps
Channel(s): 6 channels
Channel positions: Front: L C R, Side: L R, LFE
Sampling rate: 48.0 KHz
Bit depth: 24 bits
Compression mode: Lossy
Delay relative to video: -784ms
Stream size: 91.0 MiB (9%)

Audio #3
ID: 189 (0xBD)-160 (0xA0)
Format: PCM
Format settings, Endianness: Big
Format settings, Sign: Signed
Muxing mode: DVD-Video
Duration: 16mn 51s
Bit rate mode: Constant
Bit rate: 1 536 Kbps
Channel(s): 2 channels
Sampling rate: 48.0 KHz
Bit depth: 16 bits
Delay relative to video: -811ms
Stream size: 185 MiB (18%)



Volver al índice de Variados







Datos legales


16:10:15
computer